<?xml version="1.0" standalone="no"?>
<!DOCTYPE svg PUBLIC "-//W3C//DTD SVG 1.1//EN" "http://www.w3.org/Graphics/SVG/1.1/DTD/svg11.dtd" >
<svg>
<metadata>
Created by FontForge 20120731 at Thu Oct  2 18:30:43 2014
 By World Wide Web Server
Copyright dlbucci 2014
</metadata>
<defs>
<font id="Bucci-Bit-2" horiz-adv-x="768" >
  <font-face 
    font-family="Bucci Bit 2"
    font-weight="400"
    font-stretch="normal"
    units-per-em="1024"
    panose-1="0 0 4 0 0 0 0 0 0 0"
    ascent="819"
    descent="-205"
    x-height="1024"
    cap-height="1408"
    bbox="0 0 1280 1408"
    underline-thickness="51"
    underline-position="127"
    unicode-range="U+0020-201D"
  />
<missing-glyph horiz-adv-x="0" 
d="M640 181v204h-204v-204h204zM843 419v204h-407v-204h407zM640 656v204h-204v-204h204zM843 894v202h-203q-85 0 -144 -58q-60 -61 -60 -144h407zM0 0v1280h1280v-1280h-1280z" />
    <glyph glyph-name=".notdef" horiz-adv-x="0" 
d="M640 181v204h-204v-204h204zM843 419v204h-407v-204h407zM640 656v204h-204v-204h204zM843 894v202h-203q-85 0 -144 -58q-60 -61 -60 -144h407zM0 0v1280h1280v-1280h-1280z" />
    <glyph glyph-name="glyph1" horiz-adv-x="0" 
 />
    <glyph glyph-name="glyph2" horiz-adv-x="256" 
 />
    <glyph glyph-name="space" unicode=" " horiz-adv-x="512" 
 />
    <glyph glyph-name="exclam" unicode="!" horiz-adv-x="384" 
d="M0 384v256h256v-256h-256zM0 768v640h256v-640h-256z" />
    <glyph glyph-name="quotedbl" unicode="&#x22;" horiz-adv-x="512" 
d="M0 1152v256h128v-256h-128zM256 1152v256h128v-256h-128z" />
    <glyph glyph-name="numbersign" unicode="#" horiz-adv-x="896" 
d="M512 640v256h-256v-256h256zM128 384v128h-128v128h128v256h-128v128h128v128h128v-128h256v128h128v-128h128v-128h-128v-256h128v-128h-128v-128h-128v128h-256v-128h-128z" />
    <glyph glyph-name="dollar" unicode="$" 
d="M512 640v128h-128v-128h128zM256 896v128h-128v-128h128zM256 384v128h-256v128h256v128h-256v384h256v128h128v-128h256v-128h-256v-128h256v-384h-256v-128h-128z" />
    <glyph glyph-name="percent" unicode="%" horiz-adv-x="896" 
d="M0 384v128h128v-128h-128zM128 512v128h128v-128h-128zM512 384v256h256v-256h-256zM256 640v128h128v-128h-128zM384 768v128h128v-128h-128zM512 896v128h128v-128h-128zM0 896v256h256v-256h-256zM640 1024v128h128v-128h-128z" />
    <glyph glyph-name="ampersand" unicode="&#x26;" 
d="M512 640v128h-128v-128h128zM512 896v128h-128v-128h128zM256 384v128h-256v128h256v128h-256v128h256v128h-256v128h256v128h128v-128h256v-640h-256v-128h-128z" />
    <glyph glyph-name="quotesingle" unicode="'" horiz-adv-x="256" 
d="M0 1152v256h128v-256h-128z" />
    <glyph glyph-name="parenleft" unicode="(" horiz-adv-x="512" 
d="M128 384v128h-128v768h128v128h256v-128h-128v-768h128v-128h-256z" />
    <glyph glyph-name="parenright" unicode=")" horiz-adv-x="512" 
d="M0 384v128h128v768h-128v128h256v-128h128v-768h-128v-128h-256z" />
    <glyph glyph-name="asterisk" unicode="*" horiz-adv-x="512" 
d="M128 1024v128h-128v128h128v128h128v-128h128v-128h-128v-128h-128z" />
    <glyph glyph-name="plus" unicode="+" 
d="M256 512v256h-256v128h256v256h128v-256h256v-128h-256v-256h-128z" />
    <glyph glyph-name="comma" unicode="," horiz-adv-x="384" 
d="M128 256v128h-128v256h256v-384h-128z" />
    <glyph glyph-name="hyphen" unicode="-" 
d="M0 768v128h640v-128h-640z" />
    <glyph glyph-name="period" unicode="." horiz-adv-x="384" 
d="M0 384v256h256v-256h-256z" />
    <glyph glyph-name="slash" unicode="/" 
d="M0 384v256h128v256h128v256h128v256h256v-256h-128v-256h-128v-256h-128v-256h-256z" />
    <glyph glyph-name="zero" unicode="0" 
d="M384 640v512h-128v-512h128zM128 384v128h-128v768h128v128h384v-128h128v-768h-128v-128h-384z" />
    <glyph glyph-name="one" unicode="1" horiz-adv-x="640" 
d="M0 384v256h128v384h-128v256h128v128h256v-768h128v-256h-512z" />
    <glyph glyph-name="two" unicode="2" 
d="M0 384v512h128v128h256v128h-384v256h512v-128h128v-384h-128v-128h-256v-128h384v-256h-640z" />
    <glyph glyph-name="three" unicode="3" 
d="M0 384v256h384v128h-256v256h256v128h-384v256h512v-128h128v-768h-128v-128h-512z" />
    <glyph glyph-name="four" unicode="4" 
d="M384 384v128h-384v768h256v-512h128v640h256v-1024h-256z" />
    <glyph glyph-name="five" unicode="5" 
d="M0 384v256h384v128h-256v128h-128v512h640v-256h-384v-128h256v-128h128v-384h-128v-128h-512z" />
    <glyph glyph-name="six" unicode="6" 
d="M384 640v128h-128v-128h128zM128 384v128h-128v768h128v128h512v-256h-384v-128h256v-128h128v-384h-128v-128h-384z" />
    <glyph glyph-name="seven" unicode="7" 
d="M128 384v384h128v256h128v128h-384v256h640v-512h-128v-256h-128v-256h-256z" />
    <glyph glyph-name="eight" unicode="8" 
d="M384 640v128h-128v-128h128zM384 1024v128h-128v-128h128zM128 384v128h-128v384h128v128h-128v256h128v128h384v-128h128v-256h-128v-128h128v-384h-128v-128h-384z" />
    <glyph glyph-name="nine" unicode="9" 
d="M384 1024v128h-128v-128h128zM0 384v256h384v128h-256v128h-128v384h128v128h384v-128h128v-768h-128v-128h-512z" />
    <glyph glyph-name="colon" unicode=":" horiz-adv-x="384" 
d="M0 512v256h256v-256h-256zM0 896v256h256v-256h-256z" />
    <glyph glyph-name="semicolon" unicode=";" horiz-adv-x="384" 
d="M128 384v128h-128v256h256v-384h-128zM0 896v256h256v-256h-256z" />
    <glyph glyph-name="less" unicode="&#x3c;" 
d="M384 512v128h256v-128h-256zM128 640v128h256v-128h-256zM0 768v128h128v-128h-128zM128 896v128h256v-128h-256zM384 1024v128h256v-128h-256z" />
    <glyph glyph-name="equal" unicode="=" 
d="M0 640v128h640v-128h-640zM0 896v128h640v-128h-640z" />
    <glyph glyph-name="greater" unicode="&#x3e;" 
d="M0 512v128h256v-128h-256zM256 640v128h256v-128h-256zM512 768v128h128v-128h-128zM256 896v128h256v-128h-256zM0 1024v128h256v-128h-256z" />
    <glyph glyph-name="question" unicode="?" 
d="M128 384v256h256v-256h-256zM128 768v256h256v128h-384v256h512v-128h128v-384h-128v-128h-384z" />
    <glyph glyph-name="at" unicode="@" horiz-adv-x="1024" 
d="M128 384v128h640v-128h-640zM512 768v128h-128v-128h128zM0 512v640h128v-640h-128zM768 512v128h-512v384h384v-256h128v384h128v-640h-128zM128 1152v128h640v-128h-640z" />
    <glyph glyph-name="A" unicode="A" 
d="M384 1024v128h-128v-128h128zM0 384v896h128v128h384v-128h128v-896h-256v384h-128v-384h-256z" />
    <glyph glyph-name="B" unicode="B" 
d="M384 640v128h-128v-128h128zM384 1024v128h-128v-128h128zM0 384v1024h512v-128h128v-256h-128v-128h128v-384h-128v-128h-512z" />
    <glyph glyph-name="C" unicode="C" 
d="M128 384v128h-128v768h128v128h384v-128h128v-256h-256v128h-128v-512h128v128h256v-256h-128v-128h-384z" />
    <glyph glyph-name="D" unicode="D" 
d="M384 640v512h-128v-512h128zM0 384v1024h512v-128h128v-768h-128v-128h-512z" />
    <glyph glyph-name="E" unicode="E" 
d="M0 384v1024h640v-256h-384v-128h256v-256h-256v-128h384v-256h-640z" />
    <glyph glyph-name="F" unicode="F" 
d="M0 384v1024h640v-256h-384v-128h256v-256h-256v-384h-256z" />
    <glyph glyph-name="G" unicode="G" horiz-adv-x="896" 
d="M128 384v128h-128v768h128v128h640v-256h-512v-512h256v128h-128v256h384v-512h-128v-128h-512z" />
    <glyph glyph-name="H" unicode="H" 
d="M0 384v1024h256v-384h128v384h256v-1024h-256v384h-128v-384h-256z" />
    <glyph glyph-name="I" unicode="I" horiz-adv-x="640" 
d="M0 384v256h128v512h-128v256h512v-256h-128v-512h128v-256h-512z" />
    <glyph glyph-name="J" unicode="J" 
d="M128 384v128h-128v256h256v-128h128v768h256v-896h-128v-128h-384z" />
    <glyph glyph-name="K" unicode="K" 
d="M0 384v1024h256v-384h128v384h256v-384h-128v-256h128v-384h-256v384h-128v-384h-256z" />
    <glyph glyph-name="L" unicode="L" 
d="M0 384v1024h256v-768h384v-256h-640z" />
    <glyph glyph-name="M" unicode="M" horiz-adv-x="1152" 
d="M0 384v1024h1024v-1024h-256v768h-128v-768h-256v768h-128v-768h-256z" />
    <glyph glyph-name="N" unicode="N" horiz-adv-x="896" 
d="M0 384v1024h256v-128h128v-128h128v256h256v-1024h-256v384h-128v128h-128v-512h-256z" />
    <glyph glyph-name="O" unicode="O" 
d="M384 640v512h-128v-512h128zM128 384v128h-128v768h128v128h384v-128h128v-768h-128v-128h-384z" />
    <glyph glyph-name="P" unicode="P" 
d="M384 1024v128h-128v-128h128zM0 384v1024h512v-128h128v-384h-128v-128h-256v-384h-256z" />
    <glyph glyph-name="Q" unicode="Q" horiz-adv-x="896" 
d="M384 640v512h-128v-512h128zM128 384v128h-128v768h128v128h384v-128h128v-640h128v-256h-640z" />
    <glyph glyph-name="R" unicode="R" 
d="M384 1024v128h-128v-128h128zM0 384v1024h512v-128h128v-384h-128v-128h128v-384h-256v384h-128v-384h-256z" />
    <glyph glyph-name="S" unicode="S" 
d="M0 384v256h384v128h-256v128h-128v384h128v128h512v-256h-384v-128h256v-128h128v-384h-128v-128h-512z" />
    <glyph glyph-name="T" unicode="T" horiz-adv-x="896" 
d="M256 384v768h-256v256h768v-256h-256v-768h-256z" />
    <glyph glyph-name="U" unicode="U" 
d="M128 384v128h-128v896h256v-768h128v768h256v-896h-128v-128h-384z" />
    <glyph glyph-name="V" unicode="V" horiz-adv-x="896" 
d="M256 384v128h-128v128h-128v768h256v-640h256v640h256v-768h-128v-128h-128v-128h-256z" />
    <glyph glyph-name="W" unicode="W" horiz-adv-x="1152" 
d="M128 384v128h-128v896h256v-768h128v512h256v-512h128v768h256v-896h-128v-128h-768z" />
    <glyph glyph-name="X" unicode="X" 
d="M0 384v384h128v256h-128v384h256v-384h128v384h256v-384h-128v-256h128v-384h-256v384h-128v-384h-256z" />
    <glyph glyph-name="Y" unicode="Y" horiz-adv-x="896" 
d="M256 384v384h-128v128h-128v512h256v-384h256v384h256v-512h-128v-128h-128v-384h-256z" />
    <glyph glyph-name="Z" unicode="Z" 
d="M0 384v384h128v256h128v128h-256v256h640v-384h-128v-256h-128v-128h256v-256h-640z" />
    <glyph glyph-name="bracketleft" unicode="[" horiz-adv-x="512" 
d="M0 384v1024h384v-128h-128v-768h128v-128h-384z" />
    <glyph glyph-name="backslash" unicode="\" 
d="M384 384v256h-128v256h-128v256h-128v256h256v-256h128v-256h128v-256h128v-256h-256z" />
    <glyph glyph-name="bracketright" unicode="]" horiz-adv-x="512" 
d="M0 384v128h128v768h-128v128h384v-1024h-384z" />
    <glyph glyph-name="asciicircum" unicode="^" 
d="M0 768v256h128v-256h-128zM512 768v256h128v-256h-128zM128 1024v256h128v-256h-128zM384 1024v256h128v-256h-128zM256 1280v128h128v-128h-128z" />
    <glyph glyph-name="underscore" unicode="_" 
d="M0 384v128h640v-128h-640z" />
    <glyph glyph-name="grave" unicode="`" horiz-adv-x="512" 
d="M128 1152v128h-128v128h256v-128h128v-128h-256z" />
    <glyph glyph-name="a" unicode="a" horiz-adv-x="640" 
d="M384 512v128h-256v-128h256zM0 384v384h384v128h-384v128h512v-640h-512z" />
    <glyph glyph-name="b" unicode="b" horiz-adv-x="640" 
d="M384 512v384h-256v-384h256zM0 384v896h128v-256h384v-640h-512z" />
    <glyph glyph-name="c" unicode="c" horiz-adv-x="640" 
d="M0 384v640h512v-128h-384v-384h384v-128h-512z" />
    <glyph glyph-name="d" unicode="d" horiz-adv-x="640" 
d="M384 512v384h-256v-384h256zM0 384v640h384v256h128v-896h-512z" />
    <glyph glyph-name="e" unicode="e" horiz-adv-x="640" 
d="M384 768v128h-256v-128h256zM0 384v640h512v-384h-384v-128h384v-128h-512z" />
    <glyph glyph-name="f" unicode="f" horiz-adv-x="640" 
d="M128 384v512h-128v128h128v256h384v-128h-256v-128h256v-128h-256v-512h-128z" />
    <glyph glyph-name="g" unicode="g" horiz-adv-x="640" 
d="M384 512v384h-256v-384h256zM0 128v128h384v128h-384v640h512v-896h-512z" />
    <glyph glyph-name="h" unicode="h" horiz-adv-x="640" 
d="M0 384v896h128v-256h384v-640h-128v512h-256v-512h-128z" />
    <glyph glyph-name="i" unicode="i" horiz-adv-x="256" 
d="M0 384v640h128v-640h-128zM0 1152v128h128v-128h-128z" />
    <glyph glyph-name="j" unicode="j" horiz-adv-x="640" 
d="M0 128v256h128v-128h256v768h128v-896h-512zM384 1152v128h128v-128h-128z" />
    <glyph glyph-name="k" unicode="k" horiz-adv-x="640" 
d="M384 384v256h128v-256h-128zM384 768v256h128v-256h-128zM0 384v896h128v-512h256v-128h-256v-256h-128z" />
    <glyph glyph-name="l" unicode="l" horiz-adv-x="256" 
d="M0 384v896h128v-896h-128z" />
    <glyph glyph-name="m" unicode="m" 
d="M512 384v512h128v-512h-128zM0 384v640h512v-128h-128v-512h-128v512h-128v-512h-128z" />
    <glyph glyph-name="n" unicode="n" horiz-adv-x="640" 
d="M384 384v512h128v-512h-128zM0 384v640h384v-128h-256v-512h-128z" />
    <glyph glyph-name="o" unicode="o" horiz-adv-x="640" 
d="M384 512v384h-256v-384h256zM0 384v640h512v-640h-512z" />
    <glyph glyph-name="p" unicode="p" horiz-adv-x="640" 
d="M384 512v384h-256v-384h256zM0 128v896h512v-640h-384v-256h-128z" />
    <glyph glyph-name="q" unicode="q" horiz-adv-x="640" 
d="M384 512v384h-256v-384h256zM384 128v256h-384v640h512v-896h-128z" />
    <glyph glyph-name="r" unicode="r" horiz-adv-x="640" 
d="M0 384v640h512v-128h-384v-512h-128z" />
    <glyph glyph-name="s" unicode="s" horiz-adv-x="640" 
d="M0 384v128h384v128h-384v384h512v-128h-384v-128h384v-384h-512z" />
    <glyph glyph-name="t" unicode="t" horiz-adv-x="640" 
d="M128 384v512h-128v128h128v256h128v-256h256v-128h-256v-384h256v-128h-384z" />
    <glyph glyph-name="u" unicode="u" horiz-adv-x="640" 
d="M0 384v640h128v-512h256v512h128v-640h-512z" />
    <glyph glyph-name="v" unicode="v" 
d="M256 384v128h128v-128h-128zM128 512v128h128v-128h-128zM384 512v128h128v-128h-128zM0 640v384h128v-384h-128zM512 640v384h128v-384h-128z" />
    <glyph glyph-name="w" unicode="w" 
d="M128 384v128h128v256h128v-256h128v-128h-384zM0 512v512h128v-512h-128zM512 512v512h128v-512h-128z" />
    <glyph glyph-name="x" unicode="x" 
d="M0 384v128h128v-128h-128zM512 384v128h128v-128h-128zM128 512v128h128v-128h-128zM384 512v128h128v-128h-128zM256 640v128h128v-128h-128zM128 768v128h128v-128h-128zM384 768v128h128v-128h-128zM0 896v128h128v-128h-128zM512 896v128h128v-128h-128z" />
    <glyph glyph-name="y" unicode="y" horiz-adv-x="640" 
d="M0 128v128h384v128h-384v640h128v-512h256v512h128v-896h-512z" />
    <glyph glyph-name="z" unicode="z" horiz-adv-x="640" 
d="M0 384v256h128v-128h384v-128h-512zM128 640v128h256v-128h-256zM384 768v128h-384v128h512v-256h-128z" />
    <glyph glyph-name="braceleft" unicode="{" horiz-adv-x="512" 
d="M128 384v384h128v-256h128v-128h-256zM0 768v256h128v-256h-128zM128 1024v384h256v-128h-128v-256h-128z" />
    <glyph glyph-name="bar" unicode="|" horiz-adv-x="384" 
d="M0 384v1024h256v-1024h-256z" />
    <glyph glyph-name="braceright" unicode="}" horiz-adv-x="512" 
d="M0 384v128h128v256h128v-384h-256zM256 768v256h128v-256h-128zM128 1024v256h-128v128h256v-384h-128z" />
    <glyph glyph-name="asciitilde" unicode="~" 
d="M384 640v128h128v-128h-128zM0 768v128h128v-128h-128zM256 768v128h128v-128h-128zM512 768v128h128v-128h-128zM128 896v128h128v-128h-128z" />
    <glyph glyph-name="quoteleft" unicode="&#x2018;" horiz-adv-x="256" 
d="M0 1152v256h128v-256h-128z" />
    <glyph glyph-name="quoteright" unicode="&#x2019;" horiz-adv-x="256" 
d="M0 1152v256h128v-256h-128z" />
    <glyph glyph-name="quotedblleft" unicode="&#x201c;" horiz-adv-x="512" 
d="M0 1152v256h128v-256h-128zM256 1152v256h128v-256h-128z" />
    <glyph glyph-name="quotedblright" unicode="&#x201d;" horiz-adv-x="512" 
d="M0 1152v256h128v-256h-128zM256 1152v256h128v-256h-128z" />
  </font>
</defs>
</svg>
